The Greek Forum

Το Ελληνικό Φορουμ
 
ΠόρταλΠόρταλ  ΦόρουμΦόρουμ  Chat Room  Συχνές ΕρωτήσειςΣυχνές Ερωτήσεις  ΑναζήτησηΑναζήτηση  Κατάλογος ΜελώνΚατάλογος Μελών  Ομάδες ΜελώνΟμάδες Μελών  ΕγγραφήΕγγραφή  ΣύνδεσηΣύνδεση  

Μοιραστείτε | 
 

 ΣΤΟ ΞΕΣΠΑΣΜΑ ΤΟΥ ΦΕΓΓΑΡΙΟΥ (2010)Cryptload File

Πήγαινε κάτω 
ΣυγγραφέαςΜήνυμα
Markitsi



Αριθμός μηνυμάτων : 131
Ημερομηνία εγγραφής : 14/06/2012

ΔημοσίευσηΘέμα: ΣΤΟ ΞΕΣΠΑΣΜΑ ΤΟΥ ΦΕΓΓΑΡΙΟΥ (2010)Cryptload File    6/23/2012, 7:07 am

Στο Ξέσπασμα του Φεγγαριού-Δραματική(2010)


Ένας έρωτας στη σκιά του μίσους!!!!!!!

















Σκηνοθεσία:Στράτος Μαρκίδης

Σεναριο:Γιώργος Χρυσοβιτσάνος,Ιωάννα Γιαννούλη


Ήθοποιοί:
Ιωσήφ Μαρινάκης, Κώστας Αποστολάκης, Τάνια Τρύπη, Τζένη Μπότση, Κατερίνα Γερονικολού, Κώστας Λούκας, , Πατρίτσια Περιστέρη, Νίκος Βερλέκης


Περίληψη:Η Αλεξάνδρα και ο Μάνος, δύο άγνωστα μεταξύ τους νέα παιδιά, νιώθουν ερωτική αναστάτωση με τις πρώτες ματιές που ανταλλάσσουν. Η επαφή τους διακόπτεται απότομα από τον αδελφό της Αλεξάνδρας, τον Στέφανο, που την παίρνει και φεύγουν.......


Avi File Details

VideoFile name :Στο ξέσπασμα του φεγγαριού.avi
File size : 894 MB MiB
Stream size: 796 MiB
Duration : 1h 33mn
Bit rate : 1203 Kbps
Frame rate : 23.976 fpsfps

Audio
Bit rate : 128 Kbps
Sampling rate: 48.0 KHz
Stream size : 85.6 MiB
Width x Height: 720x576




Όταν ο έρωτας έχει μυστικά, όταν τα μυστικά αποκαλύπτονται και οι αποκαλύψεις γίνονται επικίνδυνες...μέχρι που θα φτάσεις για να ξεφύγεις από το πεπρωμένο σου?






Επιστροφή στην κορυφή Πήγαινε κάτω
Επισκόπηση του προφίλ των χρηστών
makis7



Αριθμός μηνυμάτων : 2
Ημερομηνία εγγραφής : 28/11/2012

ΔημοσίευσηΘέμα: Απ: ΣΤΟ ΞΕΣΠΑΣΜΑ ΤΟΥ ΦΕΓΓΑΡΙΟΥ (2010)Cryptload File    11/28/2012, 12:57 pm

thank you!!!!!!!!!
Επιστροφή στην κορυφή Πήγαινε κάτω
Επισκόπηση του προφίλ των χρηστών
lenios



Αριθμός μηνυμάτων : 1
Ημερομηνία εγγραφής : 20/01/2013

ΔημοσίευσηΘέμα: Απ: ΣΤΟ ΞΕΣΠΑΣΜΑ ΤΟΥ ΦΕΓΓΑΡΙΟΥ (2010)Cryptload File    1/20/2013, 9:23 pm

thenkas
Επιστροφή στην κορυφή Πήγαινε κάτω
Επισκόπηση του προφίλ των χρηστών
tsias1990



Αριθμός μηνυμάτων : 2
Ημερομηνία εγγραφής : 01/03/2013

ΔημοσίευσηΘέμα: Απ: ΣΤΟ ΞΕΣΠΑΣΜΑ ΤΟΥ ΦΕΓΓΑΡΙΟΥ (2010)Cryptload File    3/1/2013, 4:30 pm

thanx
Επιστροφή στην κορυφή Πήγαινε κάτω
Επισκόπηση του προφίλ των χρηστών
kalpav



Αριθμός μηνυμάτων : 3
Ημερομηνία εγγραφής : 24/02/2014

ΔημοσίευσηΘέμα: Απ: ΣΤΟ ΞΕΣΠΑΣΜΑ ΤΟΥ ΦΕΓΓΑΡΙΟΥ (2010)Cryptload File    2/24/2014, 8:38 am

thank you
Επιστροφή στην κορυφή Πήγαινε κάτω
Επισκόπηση του προφίλ των χρηστών
 
ΣΤΟ ΞΕΣΠΑΣΜΑ ΤΟΥ ΦΕΓΓΑΡΙΟΥ (2010)Cryptload File
Επιστροφή στην κορυφή 
Σελίδα 1 από 1
 Παρόμοια θέματα
-
» Η εποχή των ασφόδελων (the season of the daffodils -by Josephine Hymes)
» Candy Candy movie 2010

Δικαιώματα σας στην κατηγορία αυτήΔεν μπορείτε να απαντήσετε στα Θέματα αυτής της Δ.Συζήτησης
The Greek Forum :: Ψυχαγωγία :: Ψυχαγωγία :: Κινηματογράφος & Τηλεόραση/Cinema & Tv-
Μετάβαση σε: